Penny Dreadful S03E07 720p HDTV x264-FLEET[rartv]

seeders: 29
leechers: 3
updated:
Added by z0n3212.58M in TV
Torrent verified. Downloaded 7,756 times.

DownloadFast Safe Anonymous
movies, software, shows...
  • View all Penny Dreadful episodes
  • Episode title: Ebb Tide
  • Episode: S03E07
  • Air date: 12 June 2016
  • IMDb link: 2628232
  • TVmaze link: Penny Dreadful
  • Original run: 11 May 2014 — Present
  • Summary:

    Explorer Sir Malcolm Murray, American gunslinger Ethan Chandler, and others unite to combat supernatural threats in Victorian London.

    Written by Hobo.hxr2971
Available in versions: 1080p720p480pHDTVWEBRipx264x265
Penny Dreadful S03E07 720p HDTV x264-FLEET[rartv] (Size: 715.78 MB)
  Penny.Dreadful.S03E07.720p.HDTV.x264-FLEET.mkv 715.78 MB
  rarbg.com.txt 34 bytes
  Penny.Dreadful.S03E07.720p.HDTV.x264-FLEET.nfo 696 bytes

Description


http://rarbg.to
Penny.Dreadful.S03E07.720p.HDTV.x264-FLEET[rartv]

image
Screens :

image
Mediainfo :

Video
ID : 1
Format : AVC
Format/Info : Advanced Video Codec
Format profile : [email protected]
Format settings, CABAC : Yes
Format settings, ReFrames : 5 frames
Codec ID : V_MPEG4/ISO/AVC
Duration : 56mn 23s
Bit rate : 1 355 Kbps
Width : 1 280 pixels
Height : 720 pixels
Display aspect ratio : 16:9
Frame rate mode : Constant
Frame rate : 23.976 (24000/1001) fps
Color space : YUV
Chroma subsampling : 4:2:0
Bit depth : 8 bits
Scan type : Progressive
Bits/(Pixel*Frame) : 0.061
Stream size : 547 MiB (76%)
Writing library : x264 core 148 r2694 3b70645
Encoding settings : cabac=1 / ref=5 / deblock=1:-2:-2 / analyse=0x3:0x113 / me=umh / subme=8 / psy=1 / psy_rd=1.05:0.00 / mixed_ref=1 / me_range=16 / chroma_me=1 / trellis=1 / 8x8dct=1 / cqm=0 / deadzone=21,11 / fast_pskip=1 / chroma_qp_offset=-2 / threads=22 / lookahead_threads=3 / sliced_threads=0 / nr=0 / decimate=1 / interlaced=0 / bluray_compat=0 / constrained_intra=0 / bframes=3 / b_pyramid=2 / b_adapt=2 / b_bias=0 / direct=3 / weightb=1 / open_gop=0 / weightp=2 / keyint=250 / keyint_min=23 / scenecut=40 / intra_refresh=0 / rc_lookahead=50 / rc=crf / mbtree=1 / crf=18.0 / qcomp=0.60 / qpmin=0 / qpmax=69 / qpstep=4 / ip_ratio=1.40 / aq=1:0.70
Language : English
Default : Yes
Forced : No

Audio
ID : 2
Format : AC-3
Format/Info : Audio Coding 3
Mode extension : CM (complete main)
Format settings, Endianness : Big
Codec ID : A_AC3
Duration : 56mn 23s
Bit rate mode : Constant
Bit rate : 384 Kbps
Channel(s) : 6 channels
Channel(s)_Original : 2 channels
Channel positions : Front: L R
Sampling rate : 48.0 KHz
Frame rate : 31.250 fps (1536 spf)
Compression mode : Lossy
Stream size : 155 MiB (22%)
Language : English
Default : Yes
Forced : No

Related Torrents

torrent name size files age seed leech

Sharing Widget


Download torrent
715.78 MB
seeders:31
leechers:4
Penny Dreadful S03E07 720p HDTV x264-FLEET[rartv]



To share this torrent use the code below and insert it into comments, status messages, forum posts or your signature.

Torrent: Penny Dreadful S03E07 720p HDTV x264-FLEET[rartv]

Trackers

tracker name
udp://tracker.openbittorrent.com:80/announce
udp://tracker.publicbt.com:80/announce
udp://tracker.coppersurfer.tk:6969/announce
udp://9.rarbg.me:2710/announce
udp://glotorrents.pw:6969/announce
http://tracker.trackerfix.com/announce
udp://9.rarbg.to:2710/announce
udp://tracker.opentrackr.org:1337/announce
µTorrent compatible trackers list

Locations

name
KickassTorrents
Torrent hash: 892067B4C228BDBB6F53F490BE6F95D2BB64E110

All Comments

audio
9/10
video
9/10
please, leave only comments related to that torrent
Sign In

audio: 9video: 9
z0n321 does it again, loving your work. Thanks.
audio: 10video: 10
Thanks!
audio: 9video: 9
thanx
many thanks for the effort indeed; and the incredible speed you've got this posted again.
Tks bro Hugs from Brazil
audio: 10video: 10
Amazing quality and trusted uploader, many thanks for the effort :)

User Opinions

studee3529, rlcwallpapers3366, Goenwae3279, Apocalyps20011968, rarefuse1736, chevo53741, axellh567, longtan369, MDSECTOR60, nevsie15 ... And 116 more
xtian9553
Report a bug Open chat
Sitemap