Penny Dreadful Season 01 S01 1080p BluRay x265 Jester

seeders: 44
leechers: 24
updated:
Added by jester00776890 in TV
Torrent verified. Downloaded 2,869 times.

DownloadFast Safe Anonymous
movies, software, shows...
  • View all Penny Dreadful episodes
  • Season: Full 1st season
  • IMDb link: 2628232
  • TVmaze link: Penny Dreadful
  • Original run: 11 May 2014 — Present
  • Summary:

    Explorer Sir Malcolm Murray, American gunslinger Ethan Chandler, and others unite to combat supernatural threats in Victorian London.

    Written by Hobo.hxr2971
Available in versions: 1080p720p480pHDTVWEBRipx264x265
Penny Dreadful Season 01 S01 1080p BluRay x265 Jester (Size: 6.21 GB)
  Penny.Dreadful.S01E04.1080p.BluRay.x265-Jester.mkv 866.19 MB
  Penny.Dreadful.S01E07.1080p.BluRay.x265-Jester.mkv 862.29 MB
  Penny.Dreadful.S01E08.1080p.BluRay.x265-Jester.mkv 820.09 MB
  Penny.Dreadful.S01E02.1080p.BluRay.x265-Jester.mkv 810.26 MB
  Penny.Dreadful.S01E05.1080p.BluRay.x265-Jester.mkv 801.27 MB
  Penny.Dreadful.S01E01.1080p.BluRay.x265-Jester.mkv 772.09 MB
  Penny.Dreadful.S01E06.1080p.BluRay.x265-Jester.mkv 734.06 MB
  Penny.Dreadful.S01E03.1080p.BluRay.x265-Jester.mkv 697.17 MB

Description

image

image

image

This file is x265 HEVC


A x265/HEVC video player is REQUIRED!


Make sure you are using the appropriate video player - I prefer Potplayer as it will play just about anything with the extra codecs installed.


My 1080p files are encoded with StaxRip @ 1650 bit rate with 2-pass on Slower setting for quality.
My 720p files are encoded with StaxRip @ 1300 bit rate with 2-pass on Slower setting for quality.

Video
ID : 1
Format : HEVC
Format/Info : High Efficiency Video Coding
Format profile : [email protected]@Main
Codec ID : V_MPEGH/ISO/HEVC
Duration : 53mn 1s
Bit rate : 1 650 Kbps
Width : 1 920 pixels
Height : 1 080 pixels
Display aspect ratio : 16:9
Frame rate mode : Constant
Frame rate : 23.976 (24000/1001) fps
Color space : YUV
Chroma subsampling : 4:2:0
Bit depth : 8 bits
Bits/(Pixel*Frame) : 0.033
Stream size : 626 MiB (81%)
Writing library : x265 1.9+54-291beccb6760:[Windows][GCC 5.3.0][64 bit] 8bit+10bit+12bit
Encoding settings : wpp / ctu=64 / min-cu-size=8 / max-tu-size=32 / tu-intra-depth=2 / tu-inter-depth=2 / me=3 / subme=3 / merange=57 / rect / amp / max-merge=3 / temporal-mvp / no-early-skip / rdpenalty=0 / no-tskip / no-tskip-fast / strong-intra-smoothing / no-lossless / no-cu-lossless / no-constrained-intra / fast-intra / open-gop / no-temporal-layers / interlace=0 / keyint=250 / min-keyint=23 / scenecut=40 / rc-lookahead=30 / lookahead-slices=0 / bframes=8 / bframe-bias=0 / b-adapt=2 / ref=3 / limit-refs=0 / limit-modes / weightp / weightb / aq-mode=1 / qg-size=64 / aq-strength=1.00 / cbqpoffs=0 / crqpoffs=0 / rd=6 / psy-rd=0.30 / rdoq-level=2 / psy-rdoq=1.00 / no-rd-refine / signhide / deblock / sao / no-sao-non-deblock / b-pyramid / cutree / no-intra-refresh / rc=2 / pass / bitrate=1649 / qcomp=0.60 / qpmin=0 / qpmax=51 / qpstep=4 / cplxblur=20.0 / qblur=0.5 / ipratio=1.40 / pbratio=1.30
Default : Yes
Forced : No

Audio
ID : 2
Format : AC-3
Format/Info : Audio Coding 3
Mode extension : CM (complete main)
Format settings, Endianness : Big
Codec ID : A_AC3
Duration : 53mn 1s
Bit rate mode : Constant
Bit rate : 384 Kbps
Channel(s) : 6 channels
Channel positions : Front: L C R, Side: L R, LFE
Sampling rate : 48.0 KHz
Frame rate : 31.250 fps (1536 spf)
Compression mode : Lossy
Stream size : 146 MiB (19%)
Language : English
Default : Yes
Forced : No

Related Torrents

torrent name size files age seed leech

Sharing Widget


Download torrent
6.21 GB
seeders:42
leechers:18
Penny Dreadful Season 01 S01 1080p BluRay x265 Jester



To share this torrent use the code below and insert it into comments, status messages, forum posts or your signature.

Torrent: Penny Dreadful Season 01 S01 1080p BluRay x265 Jester

Trackers

tracker name
udp://tracker.openbittorrent.com:80/announce
udp://tracker.coppersurfer.tk:6969/announce
udp://glotorrents.pw:6969/announce
udp://tracker.opentrackr.org:1337/announce
µTorrent compatible trackers list

Locations

name
KickassTorrents
Torrent hash: 085428FF170CEE972DAC4C6DF13EC834C9D0366F

All Comments

audio
10/10
video
10/10
please, leave only comments related to that torrent
Sign In

audio: 10video: 10
Thanks smile

User Opinions

sharunseth13.33K, sebshaky8238, Leokosta6361, average333831, rhoand2138, unclemud1565, abdullah_al-najjar120, imikorari67, sidrocks12361, Oryendi26 ... And 47 more
jonanderika572, constantine7371, TBG22210
Report a bug Open chat
Sitemap